<?xml version="1.0" standalone="no"?><!DOCTYPE svg PUBLIC "-//W3C//DTD SVG 1.1//EN" "http://www.w3.org/Graphics/SVG/1.1/DTD/svg11.dtd" >
<svg xmlns="http://www.w3.org/2000/svg">
<defs>
    <font id="remixicon" horiz-adv-x="1200">
    <font-face font-family="remixicon"
      units-per-em="1200" ascent="1020"
      descent="180" />
    <missing-glyph horiz-adv-x="0" /><glyph glyph-name="arrow-right-up-line"
            unicode="&#xEA70;"
            horiz-adv-x="1200" d="M800.5197499999999 549.8095000000001L370.1907500000001 119.48L299.4802500000001 190.19L729.8097499999999 620.52H350.5212500000001V720.52H900.5197499999999V170.5200000000001H800.5197499999999V549.8095000000001z" /><glyph glyph-name="arrow-left-up-line"
            unicode="&#xEA66;"
            horiz-adv-x="1200" d="M470.1905 620.52L900.52 190.19L829.81 119.48L399.48 549.8095000000001V170.5200000000001H299.48V720.52H849.48V620.52H470.1905z" /><glyph glyph-name="arrow-right-line"
            unicode="&#xEA6C;"
            horiz-adv-x="1200" d="M808.58 469.997L540.38 738.1975L611.09 808.9079999999999L1000 419.997L611.09 31.092L540.38 101.802L808.58 369.997H200V469.997H808.58z" /><glyph glyph-name="arrow-right-s-line"
            unicode="&#xEA6E;"
            horiz-adv-x="1200" d="M653.0345 419.9980000000001L405.5455000000001 667.4865000000001L476.2565 738.197L794.4545 419.9980000000001L476.2565 101.803L405.5455000000001 172.5130000000002L653.0345 419.9980000000001z" /><glyph glyph-name="arrow-left-s-line"
            unicode="&#xEA64;"
            horiz-adv-x="1200" d="M546.9649999999999 419.9980000000001L794.4549999999999 172.5130000000002L723.7450000000001 101.803L405.545 419.9980000000001L723.7450000000001 738.197L794.4549999999999 667.4865000000001L546.9649999999999 419.9980000000001z" /><glyph glyph-name="map-pin-2-fill"
            unicode="&#xEF09;"
            horiz-adv-x="1200" d="M918.199375 194.9975L599.999375 -123.1975L281.801375 194.9975C106.065375 370.7375 106.065375 655.6595 281.801375 831.3955C457.537375 1007.1315 742.459375 1007.1315 918.199375 831.3955C1093.9343749999998 655.6595 1093.9343749999998 370.7375 918.199375 194.9975zM599.999375 413.1975C655.229375 413.1975 699.999375 457.9675 699.999375 513.1975C699.999375 568.426 655.229375 613.1975 599.999375 613.1975C544.769375 613.1975 499.999375 568.426 499.999375 513.1975C499.999375 457.9675 544.769375 413.1975 599.999375 413.1975z" /><glyph glyph-name="phone-fill"
            unicode="&#xEFE9;"
            horiz-adv-x="1200" d="M1050 198.9999999999999V22.1950000000001C1050 -4.0550000000001 1029.7050000000002 -25.835 1003.525 -27.6850000000002C981.655 -29.23 963.815 -30 950 -30C508.17 -30 150 328.17 150 770C150 783.8145 150.7725 801.6565 152.3175 823.525C154.1685 849.706 175.947 870 202.193 870H379.005C391.839 870 402.588 860.279 403.8765 847.51C405.0335 836.0465 406.1090000000001 826.843 407.1035 819.899C417.2175000000001 749.264 437.8765 682.0319999999999 467.4349999999999 619.8485C472.1795 609.8675000000001 469.0855 597.9205 460.0925 591.4970000000001L352.1775 514.41C417.876 360.945 540.9449999999999 237.875 694.41 172.1750000000001L771.355 279.905C777.86 289.005 789.9499999999999 292.135 800.0500000000001 287.3400000000001C862.2299999999999 257.805 929.455 237.1700000000001 1000.08 227.0800000000001C1006.98 226.0900000000001 1016.1250000000002 225.025 1027.51 223.875C1040.28 222.585 1050 211.835 1050 198.9999999999999z" /><glyph glyph-name="phone-line"
            unicode="&#xEFEC;"
            horiz-adv-x="1200" d="M468.278 485.895C515.1 403.5600000000001 583.5600000000001 335.1 665.895 288.28L710.12 350.195C724.8249999999999 370.775 752.58 377.135 774.78 365.01C845.12 326.5850000000001 922.855 303.235 1003.945 296.8150000000001C1029.95 294.755 1050 273.055 1050 246.9700000000001V23.8299999999999C1050 -1.8049999999999 1030.6100000000001 -23.2850000000001 1005.11 -25.905C978.6149999999998 -28.6300000000001 951.885 -30 925 -30C496.9795 -30 150 316.98 150 745C150 771.8865 151.371 798.6145 154.0945 825.112C156.715 850.6125 178.197 870 203.8325 870H426.971C453.055 870 474.7565 849.948 476.8150000000001 823.9455C483.2334999999999 742.856 506.585 665.1179999999999 545.01 594.778C557.135 572.58 550.775 544.8230000000001 530.1949999999999 530.1215L468.278 485.895zM342.2125 518.74L437.21 586.5955C410.2735 644.7429999999999 391.814 706.4085 382.3635 770H250.4535C250.1515 761.684 250 753.3499999999999 250 745C250 372.2100000000001 552.21 70 925 70C933.3500000000003 70 941.685 70.15 950 70.455V202.365C886.4100000000001 211.8150000000001 824.7450000000001 230.2750000000001 766.5949999999999 257.2099999999999L698.74 162.21C671.2900000000001 172.875 644.78 185.425 619.37 199.6950000000001L616.465 201.3499999999999C518.485 257.0650000000001 437.067 338.485 381.35 436.4650000000001L379.697 439.37C365.4245 464.78 352.877 491.2900000000001 342.2125 518.74z" /><glyph glyph-name="mail-fill"
            unicode="&#xEEF3;"
            horiz-adv-x="1200" d="M150 870H1050C1077.615 870 1100 847.614 1100 820V20C1100 -7.615 1077.615 -30 1050 -30H150C122.386 -30 100 -7.615 100 20V820C100 847.614 122.386 870 150 870zM603.0300000000001 435.855L282.361 708.115L217.639 631.885L603.655 304.145L982.72 632.192L917.28 707.808L603.0300000000001 435.855z" /><glyph glyph-name="search-line"
            unicode="&#xF0D1;"
            horiz-adv-x="1200" d="M893.7075 197.0025L1107.8425 -17.1324999999999L1037.1325 -87.8425L822.9975000000001 126.2925C746.0025 64.6924999999999 648.3575000000001 27.8425 542.1575 27.8425C293.7575000000001 27.8425 92.1575 229.4425 92.1575 477.8425C92.1575 726.2425 293.7575000000001 927.8425 542.1575 927.8425C790.5575 927.8425 992.1575 726.2425 992.1575 477.8425C992.1575 371.6425 955.3075000000002 273.9975 893.7075 197.0025zM793.3925 234.1025C854.5324999999999 297.1125 892.1575 383.0625 892.1575 477.8425C892.1575 671.2175 735.5325 827.8425 542.1575 827.8425C348.7825000000001 827.8425 192.1575 671.2175 192.1575 477.8425C192.1575 284.4675 348.7825000000001 127.8425 542.1575 127.8425C636.9375 127.8425 722.8875 165.4675000000001 785.8975 226.6075L793.3925 234.1025z" /><glyph glyph-name="check-line"
            unicode="&#xEB7B;"
            horiz-adv-x="1200" d="M493.934 260.9005L953.554 720.5195000000001L1024.2640000000001 649.809L493.934 119.4805L175.736 437.6755L246.447 508.3855L493.934 260.9005z" /><glyph glyph-name="linkedin-fill"
            unicode="&#xEEB5;"
            horiz-adv-x="1200" d="M323.5007500466773 769.9766011813349C323.4822500466772 729.2611011813349 298.7807500466774 692.6221011813349 261.0437500466773 677.3366011813348C223.3067500466773 662.0506011813349 180.0702500466773 671.1706011813349 151.7217500466773 700.3956011813349C123.3732500466773 729.6211011813349 115.5742500466773 773.1156011813349 132.0017500466773 810.3696011813349C148.4297500466773 847.6236011813348 185.8037500466773 871.1981011813349 226.5007500466773 869.9766011813349C280.5542500466773 868.3541011813348 323.5252500466773 824.0546011813349 323.5007500466773 769.9766011813349zM326.5007500466773 595.9766011813349H126.5007500466773V-30.0218988186652H326.5007500466773V595.9766011813349zM642.5017500466772 595.9766011813349H443.5007500466773V-30.0218988186652H640.5017500466772V298.4781011813349C640.5017500466772 481.4781011813349 879.0017500466772 498.4781011813349 879.0017500466772 298.4781011813349V-30.0218988186652H1076.5017500466772V366.4781011813349C1076.5017500466772 674.9766011813349 723.5017500466772 663.4766011813349 640.5017500466772 511.9781011813349L642.5017500466772 595.9766011813349z" /><glyph glyph-name="linkedin-box-fill"
            unicode="&#xEEB3;"
            horiz-adv-x="1200" d="M916.7605 103.0500000000001H783.4855V311.89C783.4855 361.6900000000001 782.4755 425.7750000000001 714.0355000000001 425.7750000000001C644.5505 425.7750000000001 633.9355 371.5850000000001 633.9355 315.5650000000001V103.0500000000001H500.6605000000001V532.5H628.6855V473.965H630.4105C648.3005 507.715 691.8005 543.3375 756.7855 543.3375C891.8254999999999 543.3375 916.8005 454.46 916.8005 338.775V103.0500000000001H916.7605zM350.1370000000001 591.2625C307.2370000000001 591.2625 272.7745 625.9875 272.7745 668.7C272.7745 711.375 307.2745 746.0625 350.1370000000001 746.0625C392.8870000000001 746.0625 427.5369999999999 711.375 427.5369999999999 668.7C427.5369999999999 625.9875 392.8495000000001 591.2625 350.1370000000001 591.2625zM416.962 103.0500000000001H283.312V532.5H416.962V103.0500000000001zM983.4355 870H216.412C179.6995 870 149.9995 840.975 149.9995 805.1625V34.835C149.9995 -1.0100000000001 179.6995 -30 216.412 -30H983.3255C1020.0005 -30 1050.0004999999999 -1.0100000000001 1050.0004999999999 34.835V805.1625C1050.0004999999999 840.975 1020.0005 870 983.3255 870H983.4355z" /><glyph glyph-name="twitter-x-line"
            unicode="&#xF3E7;"
            horiz-adv-x="1200" d="M400 920H50L463.0429999999999 369.275L72.4975 -79.9950000000001H204.999L524.4150000000001 287.4500000000001L800 -80H1150L719.585 493.885L1090.005 920H957.5049999999998L658.215 575.711L400 920zM850 20L250 820H350L950 20H850z" /><glyph glyph-name="twitter-fill"
            unicode="&#xF23A;"
            horiz-adv-x="1200" d="M1109.6095 736.0585978383264C1071.4395000000002 719.1735978383264 1030.9595000000002 708.0835978383263 989.5145000000002 703.1555978383263C1033.1795000000002 729.2950978383263 1065.8545 770.4160978383264 1081.4495 818.8585978383263C1040.4195000000002 794.4805978383264 995.5095 777.3225978383264 948.6745 768.1305978383264C909.1395 810.3080978383264 853.8845 834.2095978383264 796.0745000000001 834.1440978383264C680.6145 834.1440978383264 586.9695 740.5305978383263 586.9695 625.0195978383264C586.9695 608.6320978383263 588.8495 592.7400978383263 592.3645 577.4065978383263C418.508 586.1590978383264 264.488 669.3585978383263 161.3235 795.8905978383264C142.749 763.9775978383263 132.987 727.7020978383264 133.0365 690.7775978383264C133.0365 618.2315978383264 169.9645 554.1990978383263 226.059 516.7110978383264C192.853 517.7610978383264 160.3785 526.7290978383264 131.3435 542.8745978383264C131.3115 541.9960978383264 131.3115 541.1175978383263 131.3115 540.2870978383264C131.3115 438.9410978383264 203.394 354.4010978383265 299.084 335.2060978383264C281.1245 330.3460978383264 262.6005 327.8910978383264 243.9955 327.9060978383264C230.483 327.9060978383264 217.37 329.1510978383264 204.624 331.5960978383264C231.25 248.5360978383265 308.4275 188.0660978383264 399.9645 186.4060978383263C325.891 128.2710978383264 234.419 96.7310978383265 140.256 96.8660978383263C123.5905 96.8510978383264 106.939 97.8360978383264 90.3905 99.8060978383264C185.9865 38.3510978383264 297.2605 5.7360978383264 410.9055 5.8560978383263C795.5645 5.8560978383263 1005.8845000000002 324.4860978383264 1005.8845000000002 600.8055978383264C1005.8845000000002 609.8460978383263 1005.6645 618.9180978383264 1005.2645 627.8625978383265C1046.1995 657.4385978383265 1081.5345 694.0775978383264 1109.6095 736.0585978383264z" /><glyph glyph-name="instagram-line"
            unicode="&#xEE66;"
            horiz-adv-x="1200" d="M600.0005 570C517.1305000000001 570 449.9995 502.845 449.9995 420C449.9995 337.135 517.1555 270 600.0005 270C682.8655000000001 270 750.0005 337.155 750.0005 420C750.0005 502.865 682.8455 570 600.0005 570zM600.0005 670C738.0205000000001 670 850.0005000000001 558.145 850.0005000000001 420C850.0005000000001 281.975 738.1455 170 600.0005 170C461.976 170 349.9995 281.855 349.9995 420C349.9995 558.0235 461.8545 670 600.0005 670zM925.0005000000002 682.5425C925.0005000000002 648.037 896.9605 620.0415 862.5005000000001 620.0415C827.9955 620.0415 800.0005000000001 648.08 800.0005000000001 682.5425C800.0005000000001 717.005 828.0355 745 862.5005000000001 745C896.9155 745.0435 925.0005000000002 717.005 925.0005000000002 682.5425zM600.0005 820C476.2755000000001 820 456.1095 819.6725 398.564 817.11C359.3580000000001 815.2695 333.077 809.9965 308.6585 800.5165C286.9585000000001 792.1005 271.305 782.0509999999999 254.6265 765.3725C237.884 748.63 227.8525 733.0185 219.4705 711.3085000000001C209.9685 686.8340000000001 204.697 660.5944999999999 202.8895 621.4425C200.302 566.24 199.9995 546.9475 199.9995 420C199.9995 296.275 200.327 276.11 202.889 218.5699999999999C204.7305 179.38 210.0105 153.0600000000001 219.4675 128.6999999999999C227.9055 106.97 237.9755000000001 91.28 254.5735 74.68C271.3820000000001 57.895 287.04 47.8299999999999 308.544 39.53C333.26 29.975 359.5245 24.6950000000001 398.5565000000001 22.89C453.7595 20.305 473.052 20 600.0005 20C723.7255 20 743.8905000000001 20.3299999999999 801.4304999999999 22.89C840.5355 24.725 866.8755 30.0199999999999 891.3005000000002 39.4699999999999C912.9705 47.885 928.7105 57.9899999999999 945.3205 74.5750000000001C962.1305 91.41 972.1755 107.03 980.4855000000002 128.585C990.0155 153.21 995.3055 179.51 997.1105000000002 218.555C999.6955000000002 273.76 1000.0005000000002 293.055 1000.0005000000002 420C1000.0005000000002 543.7239999999999 999.6705 563.8895 997.1105000000002 621.4314999999999C995.2705 660.547 989.9755 686.9255 980.5155 711.341C972.1205000000002 732.981 962.0355 748.6825 945.3705000000002 765.3725C928.6005 782.1424999999999 913.0305 792.1535 891.3055 800.529C866.8505000000001 810.023 840.5705 815.302 801.4405000000002 817.1095C746.2405000000001 819.6975 726.9455 820 600.0005 820zM600.0005 920C735.8305 920 752.7905000000001 919.5 806.1255 917C859.3305 914.5415 895.6255 906.125 927.5005 893.75C960.4555 881.0415 988.2905 863.875 1016.0805000000003 836.0835C1043.8305 808.2915 1061.0004999999999 780.375 1073.7504999999999 747.5C1086.0805 715.6665 1094.5004999999999 679.3335 1097.0004999999999 626.125C1099.3754999999999 572.7915 1100.0004999999999 555.8335 1100.0004999999999 420C1100.0004999999999 284.1650000000001 1099.5004999999999 267.2100000000001 1097.0004999999999 213.8750000000001C1094.5404999999998 160.6650000000001 1086.0805 124.3749999999999 1073.7504999999999 92.5C1061.0405 59.5400000000001 1043.8305 31.71 1016.0805000000003 3.915C988.2905 -23.835 960.3305 -41 927.5005 -53.75C895.6255 -66.085 859.3305 -74.5 806.1255 -77C752.7905000000001 -79.375 735.8305 -80 600.0005 -80C464.1659999999999 -80 447.2075 -79.5 393.8745 -77C340.6660000000001 -74.54 304.4160000000001 -66.085 272.4995 -53.75C239.5825 -41.04 211.7075 -23.835 183.916 3.915C156.1245 31.71 138.9995 59.665 126.2495 92.5C113.8745 124.3749999999999 105.4995 160.6650000000001 102.9995 213.8750000000001C100.6245 267.2100000000001 99.9995 284.1650000000001 99.9995 420C99.9995 555.8335 100.4995 572.7915 102.9995 626.125C105.4575 679.375 113.8745 715.625 126.2495 747.5C138.9575 780.4165 156.1245 808.2915 183.916 836.0835C211.7075 863.875 239.6245 881 272.4995 893.75C304.3745 906.125 340.6245 914.5 393.8745 917C447.2075 919.375 464.1659999999999 920 600.0005 920z" /><glyph glyph-name="facebook-fill"
            unicode="&#xECBC;"
            horiz-adv-x="1200" d="M687.5 345H812.5L862.5 545H687.5V645C687.5 696.469 687.5 745 787.5 745H862.5V912.995C846.2149999999999 915.1575 784.65 920 719.645 920C583.92 920 487.5 837.157 487.5 685.0145V545H337.5V345H487.5V-80H687.5V345z" /><glyph glyph-name="facebook-circle-fill"
            unicode="&#xECBA;"
            horiz-adv-x="1200" d="M600.0005 916.9625C323.857 916.9625 99.9995 693.1049999999999 99.9995 416.9625C99.9995 167.3975 282.842 -39.4525 521.8755 -76.9625V272.4325H394.921V416.9625H521.8755V527.1184999999999C521.8755 652.4309999999999 596.5205000000001 721.65 710.7305 721.65C765.4355 721.65 822.6555000000001 711.8845 822.6555000000001 711.8845V588.8375H759.6055C697.4955000000001 588.8375 678.1255 550.2955000000001 678.1255 510.7524999999999V416.9625H816.7955000000001L794.6305 272.4325H678.1255V-76.9625C917.1555 -39.4525 1100.0004999999999 167.3975 1100.0004999999999 416.9625C1100.0004999999999 693.1049999999999 876.1405000000001 916.9625 600.0005 916.9625z" /><glyph glyph-name="send-plane-fill"
            unicode="&#xF0D9;"
            horiz-adv-x="1200" d="M114.3544032065347 572.2347649280043C88.2274032065347 580.9437649280043 88.0214032065347 594.9952649280043 114.8919032065347 603.9522649280043L1069.1999032065346 922.0557649280042C1095.6249032065346 930.8637649280042 1110.7799032065348 916.0732649280042 1103.3749032065348 890.1592649280043L830.7149032065347 -64.1537350719956C823.1649032065345 -90.5737350719957 807.9349032065347 -91.4937350719957 796.7699032065348 -66.3737350719956L617.0449032065346 338.0062649280043L917.0449032065346 738.0037649280042L517.0449032065346 438.0062649280043L114.3544032065347 572.2347649280043z" /><glyph glyph-name="star-s-fill"
            unicode="&#xF18C;"
            horiz-adv-x="1200" d="M599.9985 147.255L306.107 -32.255L386.012 302.725L124.4715 526.7635L467.7479999999999 554.284L599.9985 872.255L732.2535 554.284L1075.5285 526.7635L813.9884999999999 302.725L893.8935 -32.255L599.9985 147.255z" /><glyph glyph-name="add-line"
            unicode="&#xEA13;"
            horiz-adv-x="1200" d="M550 470V770H650V470H950V370H650V70H550V370H250V470H550z" /><glyph glyph-name="subtract-line"
            unicode="&#xF1AF;"
            horiz-adv-x="1200" d="M250 470V370H950V470H250z" /><glyph glyph-name="time-fill"
            unicode="&#xF20E;"
            horiz-adv-x="1200" d="M600 -80C323.8575 -80 100 143.86 100 420C100 696.1424999999999 323.8575 920 600 920C876.14 920 1100 696.1424999999999 1100 420C1100 143.86 876.14 -80 600 -80zM650 420V670H550V320H850V420H650z" /><glyph glyph-name="time-line"
            unicode="&#xF20F;"
            horiz-adv-x="1200" d="M600 -80C323.8575 -80 100 143.86 100 420C100 696.1424999999999 323.8575 920 600 920C876.14 920 1100 696.1424999999999 1100 420C1100 143.86 876.14 -80 600 -80zM600 20C820.915 20 1000 199.085 1000 420C1000 640.914 820.915 820 600 820C379.086 820 200 640.914 200 420C200 199.085 379.086 20 600 20zM650 420H850V320H550V670H650V420z" /><glyph glyph-name="share-fill"
            unicode="&#xF0F7;"
            horiz-adv-x="1200" d="M703.7950000000001 156.4300000000001L448.288 295.8C416.656 264.4 373.0935 245 325 245C228.35 245 150 323.35 150 420C150 516.65 228.35 595 325 595C373.0905 595 416.6505 575.6020000000001 448.2820000000001 544.2035L703.7950000000001 683.5725C701.31 695.323 700 707.5084999999999 700 720C700 816.65 778.35 895 875 895C971.65 895 1050 816.65 1050 720C1050 623.35 971.65 545 875 545C826.905 545 783.345 564.3995 751.715 595.8005L496.202 456.4349999999999C498.691 444.6800000000001 500 432.495 500 420C500 407.51 498.6915 395.3250000000001 496.204 383.575L751.715 244.2000000000001C783.35 275.6 826.91 295 875 295C971.65 295 1050 216.65 1050 120C1050 23.35 971.65 -55 875 -55C778.35 -55 700 23.35 700 120C700 132.49 701.31 144.6800000000001 703.7950000000001 156.4300000000001z" /><glyph glyph-name="calendar-fill"
            unicode="&#xEB26;"
            horiz-adv-x="1200" d="M100 420H1100V-30C1100 -57.615 1077.615 -80 1050 -80H150C122.386 -80 100 -57.615 100 -30V420zM850 820H1050C1077.615 820 1100 797.614 1100 770V520H100V770C100 797.614 122.386 820 150 820H350V920H450V820H750V920H850V820z" /><glyph glyph-name="arrow-up-s-line"
            unicode="&#xEA78;"
            horiz-adv-x="1200" d="M599.99775 473.035L352.51275 225.545L281.80225 296.255L599.99775 614.4549999999999L918.19775 296.255L847.48775 225.545L599.99775 473.035z" /><glyph glyph-name="arrow-down-s-line"
            unicode="&#xEA4E;"
            horiz-adv-x="1200" d="M599.99775 366.9695L847.48775 614.4555L918.19775 543.745L599.99775 225.5445L281.80225 543.745L352.51275 614.4555L599.99775 366.9695z" /><glyph glyph-name="chat-2-fill"
            unicode="&#xEB4E;"
            horiz-adv-x="1200" d="M722.5 107.5L600 -67.5L477.5000000000001 107.5H150C122.386 107.5 100 129.8850000000001 100 157.5V857.5C100 885.114 122.386 907.5 150 907.5H1050C1077.615 907.5 1100 885.114 1100 857.5V157.5C1100 129.8850000000001 1077.615 107.5 1050 107.5H722.5z" /><glyph glyph-name="close-line"
            unicode="&#xEB99;"
            horiz-adv-x="1200" d="M599.999 490.7080000000001L847.489 738.197L918.199 667.4865000000001L670.7090000000001 419.9980000000001L918.199 172.5130000000002L847.489 101.803L599.999 349.288L352.512 101.803L281.801 172.5130000000002L529.289 419.9980000000001L281.801 667.4865000000001L352.512 738.197L599.999 490.7080000000001z" /><glyph glyph-name="bookmark-fill"
            unicode="&#xEAE4;"
            horiz-adv-x="1200" d="M250 936.085H950C977.6149999999998 936.085 1000 913.699 1000 886.085V-71.0799999999999C1000 -84.885 988.805 -96.085 975 -96.085C970.305 -96.085 965.7 -94.7550000000001 961.72 -92.26L600 134.52L238.2795 -92.26C226.5815 -99.595 211.153 -96.0599999999999 203.8185 -84.3599999999999C201.3235 -80.3799999999999 200 -75.78 200 -71.0799999999999V886.085C200 913.699 222.386 936.085 250 936.085z" /><glyph glyph-name="instagram-fill"
            unicode="&#xEE65;"
            horiz-adv-x="1200" d="M651.373 919.98175C707.643 919.88875 736.1580000000001 919.59075 760.798 918.85725L770.503 918.54025C781.7130000000001 918.14175 792.773 917.64175 806.1080000000002 917.01675C859.3130000000001 914.55825 895.6080000000001 906.14175 927.483 893.76675C960.438 881.0582499999999 988.2730000000003 863.89175 1016.0630000000002 836.09975C1043.813 808.3082499999999 1060.9830000000002 780.3917499999999 1073.7330000000002 747.5167499999999C1086.063 715.6832499999999 1094.4830000000002 679.34975 1096.9830000000002 626.1417499999999C1097.5780000000002 612.8082499999999 1098.058 601.74825 1098.453 590.53625L1098.768 580.8317499999999C1099.498 556.19475 1099.833 527.67525 1099.938 471.40325L1099.978 434.12325C1099.983 429.5682500000001 1099.983 424.86825 1099.983 420.01825L1099.978 405.91325L1099.948 368.62825C1099.853 312.35825 1099.5580000000002 283.83825 1098.823 259.2032499999999L1098.5030000000002 249.49825C1098.1080000000002 238.28325 1097.6080000000002 227.22325 1096.9830000000002 213.8932500000001C1094.5230000000001 160.6832500000001 1086.063 124.3932499999999 1073.7330000000002 92.51825C1061.0230000000001 59.55825 1043.813 31.72325 1016.0630000000002 3.9332499999999C988.2730000000003 -23.8167500000001 960.3130000000002 -40.98175 927.483 -53.73175C895.6080000000001 -66.0667500000001 859.3130000000001 -74.48175 806.1080000000002 -76.98175C792.773 -77.5767500000001 781.7130000000001 -78.06175 770.503 -78.4517500000001L760.798 -78.7667500000001C736.1580000000001 -79.50175 707.643 -79.8317499999999 651.373 -79.9417499999998L614.0880000000001 -79.98175C609.5330000000001 -79.98175 604.8330000000001 -79.98175 599.9830000000001 -79.98175L585.878 -79.98175L548.5930000000001 -79.9467500000002C492.323 -79.85675 463.804 -79.5567499999998 439.1665000000001 -78.8217500000002L429.4625000000001 -78.5067500000001C418.2500000000001 -78.10675 407.1900000000001 -77.60675 393.857 -76.98175C340.6485 -74.5267499999999 304.3985 -66.0667500000001 272.4820000000001 -53.73175C239.5650000000001 -41.0267500000001 211.6900000000001 -23.8167500000001 183.8985000000001 3.9332499999999C156.1070000000001 31.72325 138.982 59.6832499999999 126.2320000000001 92.51825C113.8570000000001 124.3932499999999 105.482 160.6832500000001 102.9820000000001 213.8932500000001C102.3880000000001 227.22325 101.9035000000001 238.28325 101.5110000000001 249.49825L101.1965000000001 259.2032499999999C100.465 283.83825 100.1315000000001 312.35825 100.0235000000001 368.62825L100.0170000000001 471.40325C100.11 527.67525 100.4075 556.19475 101.1410000000001 580.8317499999999L101.4585 590.53625C101.8570000000001 601.74825 102.357 612.8082499999999 102.9820000000001 626.1417499999999C105.4400000000001 679.39175 113.8570000000001 715.6417499999999 126.2320000000001 747.5167499999999C138.9400000000001 780.4332499999999 156.1070000000001 808.3082499999999 183.8985000000001 836.09975C211.6900000000001 863.89175 239.6070000000001 881.01675 272.4820000000001 893.76675C304.3570000000001 906.14175 340.6070000000001 914.51675 393.857 917.01675C407.1900000000001 917.61025 418.2500000000001 918.09475 429.4625000000001 918.48725L439.1665000000001 918.80175C463.804 919.53375 492.323 919.86725 548.5930000000001 919.97525L651.373 919.98175zM599.9830000000001 670.01675C461.837 670.01675 349.9820000000001 558.0402499999999 349.9820000000001 420.01825C349.9820000000001 281.87325 461.9585000000001 170.01825 599.9830000000001 170.01825C738.128 170.01825 849.9830000000001 281.99325 849.9830000000001 420.01825C849.9830000000001 558.1617499999999 738.003 670.01675 599.9830000000001 670.01675zM599.9830000000001 570.0167499999999C682.8280000000001 570.0167499999999 749.9830000000001 502.88325 749.9830000000001 420.01825C749.9830000000001 337.17325 682.8480000000001 270.01825 599.9830000000001 270.01825C517.1380000000001 270.01825 449.9820000000001 337.14825 449.9820000000001 420.01825C449.9820000000001 502.86325 517.113 570.0167499999999 599.9830000000001 570.0167499999999zM862.4830000000001 745.01675C828.018 745.01675 799.9830000000001 717.0212499999999 799.9830000000001 682.5592499999999C799.9830000000001 648.0967499999999 827.978 620.0582499999999 862.4830000000001 620.0582499999999C896.943 620.0582499999999 924.983 648.0532499999999 924.983 682.5592499999999C924.983 717.0212499999999 896.8980000000001 745.05975 862.4830000000001 745.01675z" /><glyph glyph-name="menu-line"
            unicode="&#xEF3E;"
            horiz-adv-x="1200" d="M150 820H1050V720H150V820zM150 470H1050V370H150V470zM150 120H1050V20H150V120z" /><glyph glyph-name="expand-horizontal-s-fill"
            unicode="&#xF539;"
            horiz-adv-x="1200" d="M372.4875 667.4610000000001L125 419.9745000000001L372.3635 172.6095000000002L372.413 369.9745000000001H827.505L827.5 172.5145L1075 419.9995L827.515 667.4855L827.51 469.9745H372.438L372.4875 667.4610000000001z" /><glyph glyph-name="arrow-left-line"
            unicode="&#xEA60;"
            horiz-adv-x="1200" d="M391.4215 469.997H1000V369.997H391.4215L659.62 101.802L588.91 31.092L200 419.997L588.91 808.9079999999999L659.62 738.1975L391.4215 469.997z" /><glyph glyph-name="reply-fill"
            unicode="&#xF079;"
            horiz-adv-x="1200" d="M600 20L100 420L600 820V570C876.14 570 1100 346.14 1100 70C1100 56.355 1099.455 42.835 1098.38 29.4649999999999C1023.025 172.49 872.8999999999999 270 700 270H600V20z" /><glyph glyph-name="arrow-right-s-fill"
            unicode="&#xEA6D;"
            horiz-adv-x="1200" d="M750 420L450 120V720L750 420z" /><glyph glyph-name="arrow-down-s-fill"
            unicode="&#xEA4D;"
            horiz-adv-x="1200" d="M600 270L300 570H900L600 270z" /><glyph glyph-name="arrow-up-s-fill"
            unicode="&#xEA77;"
            horiz-adv-x="1200" d="M600 570L900 270H300L600 570z" /><glyph glyph-name="arrow-left-s-fill"
            unicode="&#xEA63;"
            horiz-adv-x="1200" d="M450 420L750 720V120L450 420z" /></font>
</defs>
</svg>
